#TITLE:1-1234 Back;
#SUBTITLE:;
#ARTIST:A Star;
#TITLETRANSLIT:;
#SUBTITLETRANSLIT:;
#ARTISTTRANSLIT:;
#CREDIT:;
#BANNER:1-1234 Back_logo.jpg;
#BACKGROUND:1-1234 Back_bg.jpg;
#LYRICSPATH:;
#CDTITLE:Lan.png;
#MUSIC:1-1234 Back.mp3;
#OFFSET:-0.060;
#SAMPLESTART:100.000;
#SAMPLELENGTH:12.000;
#SELECTABLE:YES;
#BPMS:0.000=119.000;
#STOPS:;
#BGCHANGES:;
// cache tags:
#FIRSTBEAT:16.000;
#LASTBEAT:248.000;
#SONGFILENAME:Songs/Super Dancer Online/1-1234 Back/1-1234 Back.sm;
#HASMUSIC:1;
#HASBANNER:1;
#MUSICLENGTH:128.609;
// end cache tags

//---------------dance-single - sky----------------
#NOTES:
     dance-single:
     sky:
     Hard:
     9:
     0.773,0.820,1.000,0.016,0.719,555.000,137.000,2.000,0.000,1.000:

0000
0000
0000
0000
,
0000
0000
0000
0000
,
0000
0000
0000
0000
,
0000
0000
0000
0000
,
1100
0001
0010
0000
0001
0100
1000
0000
0110
0001
1000
0000
1000
0100
0001
0000
,
0101
0010
1000
0000
0001
0100
0010
0000
0011
1000
0100
0000
0001
0001
0001
0001
,
1100
0000
0010
0000
0001
0100
0000
0000
0011
0000
0100
0000
1000
0000
0010
0000
,
0101
0010
1001
0100
1100
0001
1010
0100
,
1001
0000
0100
0000
1000
0000
0011
0100
0011
0000
1000
0000
0001
0000
0100
0100
,
0110
0000
1000
0000
0010
0000
1100
0001
1100
0000
0010
0000
1000
0000
0100
0000
,
0011
0100
1100
0011
0110
1000
0101
0010
,
1001
2020
0000
3030
,
0110
0100
0000
0000
0000
0000
0000
0000
0000
0000
0000
0000
1111
0000
0000
0000
,
0110
0001
0010
0100
0001
1000
0001
0100
0010
0000
0000
0000
1010
0000
0000
0000
,
0011
0000
1000
0100
0001
0010
1000
0010
0100
0000
0000
0000
1100
0000
0000
0000
,
0110
0000
1000
0010
0100
0001
0010
0100
1000
0000
0000
0000
1010
0000
0000
0000
,
0101
0000
0100
0001
0010
1000
0100
0010
1000
0000
0000
0000
0110
0000
0000
0000
,
1001
0000
0010
0100
0001
1000
0100
0001
0010
0000
0000
0000
1010
0000
0000
0000
,
0101
0000
0100
1000
0001
0010
1000
0100
0001
0000
0000
0000
0011
0000
0000
0000
,
0001
0000
1000
0010
0001
0100
1000
0010
0001
0000
0000
0000
1100
0000
0000
0000
,
1010
0000
0100
0001
0010
1000
0100
0010
0001
0000
0000
0000
0110
0000
0000
0000
,
0011
0000
1100
0100
0011
0000
1010
0000
,
1100
0000
0110
0001
1010
0000
0101
0000
,
0011
0000
1001
0100
1010
0000
0101
0000
,
1100
0000
0110
0001
1010
0000
1001
0000
,
0011
0000
0110
1000
0101
0000
1001
0000
,
0011
0000
1100
0010
0110
0000
1010
0000
,
0101
0000
0011
1000
0110
0000
1001
0000
,
0110
0000
1001
0010
1000
0001
0110
0000
,
1000
0100
0010
0001
0100
0010
0001
1000
0010
0001
1000
0100
0001
1000
0100
0010
,
0001
0010
0100
1000
0010
0100
1000
0001
0100
1000
0001
0010
1000
0001
0010
0100
,
1000
0001
0010
0100
0001
0010
0100
1000
0010
0100
1000
0001
0100
1000
0001
0010
,
0001
1000
0100
0010
0100
0010
0001
1000
0010
0001
1000
0100
0001
0010
0100
1000
,
0001
0100
0010
1000
0010
0001
1000
0100
0001
1000
0010
0100
0001
0010
0100
1000
,
0010
0001
1000
0100
0001
0010
1000
0100
0001
0010
0100
1000
0100
0010
0001
0100
,
0010
0001
1000
0010
0001
0010
0100
1000
0010
0100
1000
0001
0100
1000
0010
0001
,
0110
0000
0011
0001
0001
0000
0000
0000
,
1001
0000
0000
0000
0000
0000
0100
0000
0000
0010
0000
0000
0001
0000
0000
0000
,
0110
1000
0100
0010
1000
0001
1000
0010
0100
0000
0000
0000
0101
0000
0000
0000
,
1100
0000
0001
0010
1000
0100
0001
0100
0010
0000
0000
0000
0011
0000
0000
0000
,
0110
0000
0001
0100
0010
1000
0100
0010
0001
0000
0000
0000
0101
0000
0000
0000
,
1010
0000
0010
1000
0100
0001
0010
0100
0001
0000
0000
0000
0110
0000
0000
0000
,
1001
0000
0100
0010
1000
0001
0010
1000
0100
0000
0000
0000
0101
0000
0000
0000
,
1010
0000
0010
0001
1000
0100
0001
0010
1000
0000
0000
0000
1100
0000
0000
0000
,
1000
0000
0001
0100
1000
0010
0001
0100
1000
0000
0000
0000
0011
0000
0000
0000
,
0101
0000
0010
1000
0100
0001
0010
0100
1001
0000
1100
0000
0110
0000
0000
0000
,
1000
0100
0010
0001
0100
0010
0001
1000
0010
0001
1000
0100
0001
1000
0100
0010
,
0001
0010
0100
1000
0010
0100
1000
0001
0100
1000
0001
0010
1000
0001
0010
0100
,
1000
0001
0010
0100
0001
0010
0100
1000
0010
0100
1000
0001
0100
1000
0001
0010
,
0001
1000
0100
0010
0100
0010
0001
1000
0010
0001
1000
0100
0001
0010
0100
1000
,
0001
0100
0010
1000
0010
0001
1000
0100
0001
1000
0010
0100
0001
0010
0100
1000
,
0010
0001
1000
0100
0001
0010
1000
0100
0001
0010
0100
1000
0100
0010
0001
0100
,
0010
0001
1000
0010
0001
0010
0100
1000
0010
0100
1000
0001
0100
1000
0010
0001
,
0101
0000
0110
1000
0100
0001
0110
0000
,
1001
0000
0000
0000
0110
0000
0011
0100
0011
0000
0000
0000
1100
0000
0000
0000
,
0101
0000
0000
0000
0011
0000
1100
0010
1100
0000
0000
0000
0110
0000
1100
0000
,
0101
0000
0000
0000
1010
0000
0110
0001
0110
0000
0000
0000
0101
0000
1001
0001
,
1001
0000
0000
0000
1100
0000
1010
0010
1010
0000
0011
0000
0110
0000
0110
0000
,
1100
0000
0000
0000
1001
0000
0101
0001
0101
0000
0000
0000
0011
0000
0110
0010
,
0110
0000
0000
0000
1010
0000
1001
0001
1001
0000
0000
0000
1100
0000
0000
0000
,
0011
0100
1100
0011
0110
0001
1010
0100
,
0011
0000
1001
1000
1000
0000
0000
0000
,
1001
0000
0000
0000
;
